Networking All-in-One For Dummies | Rebecca Shoichet | Dark Season 1 Episode 10

+ ShareSpark.net »  :::: Bollywood Zone » Bollywood Movies (Original Rips) » High Resolution Movies
|-  Fanney Khan (2018) - 2CD - HDRip [x264 - AC3(5.1Ch)]


10% SBI and 10% Discount

Fanney Khan (2018) - 2CD - HDRip [x264 - AC3(5.1Ch)]

0 Members and 1 Guest are viewing this topic.

October 12, 2018, 03:37:40 AM
  • Semi Newbie
  • **
  • Topic Author
  • Thank You: 0
  • Reputation: -1
  • Activity:
    7%
  • Country: bd
  • Posts: 35
  • Topics: 35
  • Join Date: Oct 2018
  • ShareSpark Member
      Fanney Khan (2018) - 2CD - HDRip
[x264 - AC3(5.1Ch)]   
 







Code: [Select]
General
Format                                   : Matroska
Format version                           : Version 4
File size                                : 1.40 GiB
Duration                                 : 2 h 29 min

Video
ID                                       : 1
Format                                   : AVC
Format/Info                              : Advanced Video Codec
Format profile                           : [email protected]
Format settings                          : CABAC / 4 Ref Frames
Format settings, CABAC                   : Yes
Format settings, RefFrames               : 4 frames
Codec ID                                 : V_MPEG4/ISO/AVC
Duration                                 : 2 h 29 min
Bit rate                                 : 1 148 kb/s
Width                                    : 720 pixels
Height                                   : 320 pixels
Display aspect ratio                     : 2.25:1
Frame rate mode                          : Constant
Frame rate                               : 25.000 FPS
Color space                              : YUV
Chroma subsampling                       : 4:2:0
Bit depth                                : 8 bits
Scan type                                : Progressive
Bits/(Pixel*Frame)                       : 0.199
Stream size                              : 1.20 GiB (86%)

Audio
ID                                       : 2
Format                                   : AC-3
Format/Info                              : Audio Coding 3
Commercial name                          : Dolby Digital
Codec ID                                 : A_AC3
Duration                                 : 2 h 29 min
Bit rate mode                            : Constant
Bit rate                                 : 192 kb/s
Channel(s)                               : 6 channels
Channel layout                           : L R C LFE Ls Rs
Sampling rate                            : 48.0 kHz
Stream size                              : 205 MiB (14%)



  Thumbnail   







OR

OR

Share this topic on FacebookShare this topic on GoogleShare this topic on MySpaceShare this topic on TwitterShare this topic on Yahoo

« Last Edit: October 12, 2018, 03:56:24 AM by BUNGILI »



Tags:
 

Related Topics

  Subject / Started by Replies Last post
2 Replies
1001 Views
Last post August 04, 2018, 11:10:21 AM
by MatrixCode
1 Replies
927 Views
Last post August 04, 2018, 06:11:38 PM
by MatrixCode
0 Replies
455 Views
Last post August 06, 2018, 01:06:29 PM
by RoBi007
0 Replies
486 Views
Last post August 06, 2018, 01:07:24 PM
by RoBi007
0 Replies
115 Views
Last post October 12, 2018, 10:58:37 AM
by BUNGILI




Back to top