Gyagu Manga Biyori English Subbed | Datenschutzrichtlinie | Traveler by FlightStats 1.8

+ ShareSpark.net »  :::: Bollywood Zone » Bollywood Movies (Original Rips) » High Resolution Movies
|- LIFE PARTNER 2009 NF WEB-DL 1080P DD 5.1 ESUB


Electroncs Sale

LIFE PARTNER 2009 NF WEB-DL 1080P DD 5.1 ESUB

0 Members and 1 Guest are viewing this topic.

October 10, 2018, 07:02:37 PM
  • Team SSX
  • Legend Member
  • ***
  • Topic Author
  • Thank You: 3122
  • Reputation: 810
  • Activity:
    100%
  • Country: np
  • Posts: 1904
  • Topics: 1094
  • Join Date: Jul 2016
  • Love Forever !!
LIFE PARTNER 2009 NF WEB-DL 1080P DD 5.1 ESUB



 :info:
Format                                  : Matroska
Format version                          : Version 4 / Version 2
File size                                : 6.92 GiB
Duration                                : 2 h 12 min
Overall bit rate                        : 7 501 kb/s

Format                                  : AVC
Format/Info                              : Advanced Video Codec
Format profile                          : [email protected]
Format settings                          : CABAC / 3 Ref Frames
Format settings, CABAC                  : Yes
Format settings, RefFrames              : 3 frames
Codec ID                                : V_MPEG4/ISO/AVC
Duration                                : 2 h 12 min
Bit rate                                : 7 114 kb/s
Width                                    : 1 920 pixels
Height                                  : 1 080 pixels
Display aspect ratio                    : 16:9
Frame rate mode                          : Constant
Frame rate                              : 25.000 FPS
Color space                              : YUV
Chroma subsampling                      : 4:2:0
Bit depth                                : 8 bits
Scan type                                : Progressive
Bits/(Pixel*Frame)                      : 0.137
Stream size                              : 6.57 GiB (95%)
Default                                  : Yes

Format                                  : AC-3
Format/Info                              : Audio Coding 3
Codec ID                                : A_AC3
Duration                                : 2 h 12 min
Bit rate mode                            : Constant
Bit rate                                : 384 kb/s
Channel(s)                              : 6 channels
Channel positions                        : Front: L C R, Side: L R, LFE
Sampling rate                            : 48.0 kHz
Frame rate                              : 31.250 FPS (1536 SPF)
Bit depth                                : 16 bits
Compression mode                        : Lossy
Delay relative to video                  : -40 ms
Stream size                              : 363 MiB (5%)
Language                                : Hindi
Service kind                            : Complete Main
Default                                  : Yes

Format                                  : UTF-8
Codec ID                                : S_TEXT/UTF8
Codec ID/Info                            : UTF-8 Plain Text
Duration                                : 2 h 4 min
Bit rate                                : 85 b/s
Count of elements                        : 2193
Stream size                              : 77.7 KiB (0%)
Language                                : English
Default                                  : Yes
credits to DaniyalDanoKhan@desitorrents.tv


 :ss:






 :download:






Share this topic on FacebookShare this topic on GoogleShare this topic on MySpaceShare this topic on TwitterShare this topic on Yahoo



Thanks given by:


October 11, 2018, 09:50:18 AM
Reply #1
  • Devoted Member
  • **
  • Thank You: 0
  • Reputation: 6
  • Activity:
    34.8%
  • Country: in
  • Posts: 172
  • Topics: 0
  • Join Date: Sep 2018
  • ShareSpark Member

Tags:
 

Related Topics





Back to top