Ivana Wong | photoshop | Jon Oswald

+ ShareSpark.net »  :::: Bollywood Zone » Bollywood Movies (Original Rips) » High Resolution Movies
|- Blackmail (2018) 1080p BluRay x264 AC3 DD5.1 - Msubs ~ Ranvijay


Amazon Pantry Offer

Blackmail (2018) 1080p BluRay x264 AC3 DD5.1 - Msubs ~ Ranvijay

0 Members and 1 Guest are viewing this topic.

October 07, 2018, 11:43:00 PM
  • Global Moderator
  • Legend Member
  • *****
  • Topic Author
  • Thank You: 10106
  • Reputation: 2088
  • Activity:
    100%
  • Country: in
  • Posts: 5242
  • Topics: 4324
  • Join Date: Jan 2014
  • ıllıllı ѕмoĸιng ιѕ good ғor нealтн ıllıllı :)
Blackmail (2018) 1080p BluRay x264 AC3 DD5.1 - Msubs ~ Ranvijay



Quote
General
Format                                   : Matroska
Format version                           : Version 4 / Version 2
File size                                : 5.47 GiB
Duration                                 : 2 h 18 min
Overall bit rate                         : 5 661 kb/s
Movie name                               : Blackmail (2018) 1080p BluRay x264 AC3 DD5.1 - Msubs ~ Ranvijay

Video
ID                                       : 1
Format                                   : AVC
Duration                                 : 2 h 18 min
Bit rate                                 : 5 000 kb/s
Width                                    : 1 920 pixels
Height                                   : 816 pixels
Display aspect ratio                     : 2.35:1
Frame rate mode                          : Constant
Frame rate                               : 24.000 FPS
Color space                              : YUV
Chroma subsampling                       : 4:2:0
Bit depth                                : 8 bits
Scan type                                : Progressive
Bits/(Pixel*Frame)                       : 0.133
Stream size                              : 4.83 GiB (88%)
Title                                    : ~Ranvijay~

Audio
ID                                       : 2
Format                                   : AC-3
Format/Info                              : Audio Coding 3
Codec ID                                 : A_AC3
Duration                                 : 2 h 18 min
Bit rate mode                            : Constant
Bit rate                                 : 640 kb/s
Channel(s)                               : 6 channels
Channel positions                        : Front: L C R, Side: L R, LFE
Sampling rate                            : 48.0 kHz
Frame rate                               : 31.250 FPS (1536 SPF)
Bit depth                                : 16 bits
Compression mode                         : Lossy
Delay relative to video                  : -83 ms
Stream size                              : 633 MiB (11%)
Title                                    : ~Ranvijay~
Language                                 : Hindi
Service kind                             : Complete Main
Default                                  : Yes
Forced                                   : Yes

Text #1
ID                                       : 3
Format                                   : PGS
Muxing mode                              : zlib
Codec ID                                 : S_HDMV/PGS
Codec ID/Info                            : Picture based subtitle format used on BDs/HD-DVDs
Duration                                 : 2 h 12 min
Bit rate                                 : 26.0 kb/s
Count of elements                        : 3365
Stream size                              : 24.7 MiB (0%)
Title                                    : ~Ranvijay~
Language                                 : English
Default                                  : Yes
Forced                                   : Yes

Text #2
ID                                       : 4
Format                                   : PGS
Muxing mode                              : zlib
Codec ID                                 : S_HDMV/PGS
Codec ID/Info                            : Picture based subtitle format used on BDs/HD-DVDs
Duration                                 : 2 h 12 min
Bit rate                                 : 16.1 kb/s
Count of elements                        : 3334
Stream size                              : 15.3 MiB (0%)
Title                                    : ~Ranvijay~
Language                                 : Arabic
Default                                  : No
Forced                                   : No

Menu
00:00:00.000                             : en:00:00:00.000
00:03:48.250                             : en:00:03:48.250
00:10:33.417                             : en:00:10:33.417
00:16:09.208                             : en:00:16:09.208
00:19:44.000                             : en:00:19:44.000
00:31:00.333                             : en:00:31:00.333
00:35:59.542                             : en:00:35:59.542
00:47:06.000                             : en:00:47:06.000
00:52:36.833                             : en:00:52:36.833
00:59:34.417                             : en:00:59:34.417
01:01:43.833                             : en:01:01:43.833
01:08:11.500                             : en:01:08:11.500
01:16:48.833                             : en:01:16:48.833
01:20:54.208                             : en:01:20:54.208
01:26:39.208                             : en:01:26:39.208
01:42:44.500                             : en:01:42:44.500
01:46:58.917                             : en:01:46:58.917
02:04:59.000                             : en:02:04:59.000
02:07:17.667                             : en:02:07:17.667
02:10:24.875                             : en:02:10:24.875
02:13:17.500                             : en:02:13:17.500








:download:

Quote

File Leeched & Uploaded From




Don't walk as you are king, walk as you don't care who the king is....!!
Never argue with an idiot. They drag you down to their level and then beat you with experience?

Share this topic on FacebookShare this topic on GoogleShare this topic on MySpaceShare this topic on TwitterShare this topic on Yahoo




Don't walk as you are king, walk as you don't care who the king is....!!

October 07, 2018, 11:57:40 PM
Reply #1
  • Devoted Member
  • **
  • Thank You: 0
  • Reputation: 6
  • Activity:
    34.8%
  • Country: in
  • Posts: 172
  • Topics: 0
  • Join Date: Sep 2018
  • ShareSpark Member

October 08, 2018, 12:44:00 AM
Reply #2
  • Devoted Member
  • **
  • Thank You: 0
  • Reputation: 6
  • Activity:
    26.6%
  • Country: in
  • Posts: 126
  • Topics: 0
  • Join Date: Sep 2018
  • ShareSpark Member

Tags:
 

Related Topics





Back to top