No.Poly - 低多边形艺术画册 按数字着色 | Grátis7 | The Addiction 1995 Arrow BluRay Remux 1080p AVC DTS-HD MA 5 1-BMF

+ ShareSpark.net »  :::: Bollywood Zone » Bollywood Movies (Original Rips) » High Resolution Movies
|- Blackmail 2018 Hindi 1080p BluRay x264 DTS 5.1 MSubS - Hon3yHD


100% Recharge Offer

Blackmail 2018 Hindi 1080p BluRay x264 DTS 5.1 MSubS - Hon3yHD

0 Members and 1 Guest are viewing this topic.

October 07, 2018, 08:20:12 AM
  • Team SSX
  • Legend Member
  • ***
  • Topic Author
  • Thank You: 3123
  • Reputation: 810
  • Activity:
    100%
  • Country: np
  • Posts: 1904
  • Topics: 1094
  • Join Date: Jul 2016
  • Love Forever !!
Blackmail 2018 Hindi 1080p BluRay x264 DTS 5.1 MSubS - Hon3yHD



 :info:
Source: Team Telly (Thanks) !!
Format                                   : Matroska
Format version                           : Version 4 / Version 2
File size                                : 4.37 GiB
Duration                                 : 2 h 18 min
Overall bit rate                         : 4 526 kb/s

Video
ID                                       : 1
Format                                   : AVC
Format/Info                              : Advanced Video Codec
Format profile                           : [email protected]
Format settings                          : CABAC / 5 Ref Frames
Format settings, CABAC                   : Yes
Format settings, RefFrames               : 5 frames
Codec ID                                 : V_MPEG4/ISO/AVC
Duration                                 : 2 h 18 min
Bit rate                                 : 3 758 kb/s
Width                                    : 1 920 pixels
Height                                   : 800 pixels
Display aspect ratio                     : 2.40:1
Frame rate mode                          : Constant
Frame rate                               : 24.000 FPS

Audio
ID                                       : 2
Format                                   : DTS
Format/Info                              : Digital Theater Systems
Codec ID                                 : A_DTS
Duration                                 : 2 h 18 min
Bit rate mode                            : Constant
Bit rate                                 : 768 kb/s
Channel(s)                               : 6 channels
Channel positions                        : Front: L C R, Side: L R, LFE
Sampling rate                            : 48.0 kHz
Frame rate                               : 93.750 FPS (512 SPF)
Bit depth                                : 24 bits
Compression mode                         : Lossy
Stream size                              : 759 MiB (17%)
Language                                 : Hindi
Default                                  : Yes
Forced                                   : No

Text #1
ID                                       : 3
Format                                   : UTF-8
Codec ID                                 : S_TEXT/UTF8
Codec ID/Info                            : UTF-8 Plain Text
Duration                                 : 2 h 12 min
Bit rate                                 : 47 b/s
Count of elements                        : 1700
Stream size                              : 46.1 KiB (0%)
Language                                 : English
Default                                  : Yes
Forced                                   : No

Text #2
ID                                       : 4
Format                                   : UTF-8
Codec ID                                 : S_TEXT/UTF8
Codec ID/Info                            : UTF-8 Plain Text
Duration                                 : 2 h 12 min
Bit rate                                 : 67 b/s
Count of elements                        : 1639
Stream size                              : 65.2 KiB (0%)
Language                                 : Arabic
Default                                  : No
Forced                                   : No

Text #3
ID                                       : 5
Format                                   : PGS
Codec ID                                 : S_HDMV/PGS
Codec ID/Info                            : Picture based subtitle format used on BDs/HD-DVDs
Duration                                 : 2 h 12 min
Bit rate                                 : 26.0 kb/s
Count of elements                        : 3365
Stream size                              : 24.7 MiB (1%)
Language                                 : English
Default                                  : No
Forced                                   : No

Menu
00:00:00.000                             : en:00:00:00.000
00:03:48.250                             : en:00:03:48.250
00:10:33.417                             : en:00:10:33.417
00:16:09.208                             : en:00:16:09.208
00:19:44.000                             : en:00:19:44.000
00:31:00.333                             : en:00:31:00.333
00:35:59.542                             : en:00:35:59.542
00:47:06.000                             : en:00:47:06.000
00:52:36.833                             : en:00:52:36.833
00:59:34.417                             : en:00:59:34.417
01:01:43.833                             : en:01:01:43.833
01:08:11.500                             : en:01:08:11.500
01:16:48.833                             : en:01:16:48.833
01:20:54.208                             : en:01:20:54.208
01:26:39.208                             : en:01:26:39.208
01:42:44.500                             : en:01:42:44.500
01:46:58.917                             : en:01:46:58.917
02:04:59.000                             : en:02:04:59.000
02:07:17.667                             : en:02:07:17.667
02:10:24.875                             : en:02:10:24.875
02:13:17.500                             : en:02:13:17.500


 :ss:






 :download:






Share this topic on FacebookShare this topic on GoogleShare this topic on MySpaceShare this topic on TwitterShare this topic on Yahoo



Thanks given by:


Tags:
 

Related Topics





Back to top