Monsters University Duration: 1h 44min | browser web | Animais Fantásticos: Os Crimes de Grindelwald

+ ShareSpark.net »  :::: Bollywood Zone » Bollywood Movies (Original Rips) » High Resolution Movies
|- Raid (2018) Hindi 1080p Bluray x264 DTS 5.1 ESub - Hon3yHD


Electroncs Sale

Raid (2018) Hindi 1080p Bluray x264 DTS 5.1 ESub - Hon3yHD

0 Members and 1 Guest are viewing this topic.

October 07, 2018, 08:12:28 AM
  • Team SSX
  • Legend Member
  • ***
  • Topic Author
  • Thank You: 3124
  • Reputation: 811
  • Activity:
    100%
  • Country: np
  • Posts: 1904
  • Topics: 1094
  • Join Date: Jul 2016
  • Love Forever !!
Raid (2018) Hindi 1080p Bluray x264 DTS 5.1 ESub - Hon3yHD



 :info:
Source: Team Telly (Thanks) !!
Format                                   : Matroska
Format version                           : Version 4 / Version 2
File size                                : 4.37 GiB
Duration                                 : 2 h 0 min
Overall bit rate                         : 5 176 kb/s

Video
ID                                       : 1
Format                                   : AVC
Format/Info                              : Advanced Video Codec
Format profile                           : [email protected]
Format settings                          : CABAC / 5 Ref Frames
Format settings, CABAC                   : Yes
Format settings, RefFrames               : 5 frames
Codec ID                                 : V_MPEG4/ISO/AVC
Duration                                 : 2 h 0 min
Bit rate                                 : 4 406 kb/s
Width                                    : 1 920 pixels
Height                                   : 800 pixels
Display aspect ratio                     : 2.40:1
Frame rate mode                          : Constant
Frame rate                               : 24.000 FPS


Audio
ID                                       : 2
Format                                   : DTS
Format/Info                              : Digital Theater Systems
Codec ID                                 : A_DTS
Duration                                 : 2 h 0 min
Bit rate mode                            : Constant
Bit rate                                 : 768 kb/s
Channel(s)                               : 6 channels
Channel positions                        : Front: L C R, Side: L R, LFE
Sampling rate                            : 48.0 kHz
Frame rate                               : 93.750 FPS (512 SPF)
Bit depth                                : 24 bits
Compression mode                         : Lossy
Stream size                              : 664 MiB (15%)
Language                                 : Hindi
Default                                  : Yes
Forced                                   : No

Text
ID                                       : 3
Format                                   : UTF-8
Codec ID                                 : S_TEXT/UTF8
Codec ID/Info                            : UTF-8 Plain Text
Duration                                 : 1 h 57 min
Bit rate                                 : 53 b/s
Count of elements                        : 1416
Stream size                              : 45.8 KiB (0%)
Language                                 : English
Default                                  : Yes
Forced                                   : No

Menu
00:00:00.000                             : en:00:00:00.000
00:06:57.417                             : en:00:06:57.417
00:11:11.833                             : en:00:11:11.833
00:15:37.542                             : en:00:15:37.542
00:27:43.750                             : en:00:27:43.750
00:50:25.625                             : en:00:50:25.625
00:53:03.000                             : en:00:53:03.000
01:01:39.292                             : en:01:01:39.292
01:12:07.625                             : en:01:12:07.625
01:17:37.375                             : en:01:17:37.375
01:22:29.625                             : en:01:22:29.625
01:25:33.042                             : en:01:25:33.042
01:31:04.000                             : en:01:31:04.000
01:39:54.292                             : en:01:39:54.292
01:49:06.625                             : en:01:49:06.625
01:55:01.000                             : en:01:55:01.000


 :ss:





 :download:






Share this topic on FacebookShare this topic on GoogleShare this topic on MySpaceShare this topic on TwitterShare this topic on Yahoo



Thanks given by:


Tags:
 

Related Topics

  Subject / Started by Replies Last post
2 Replies
2198 Views
Last post May 29, 2018, 05:27:36 PM
by Vagabond
0 Replies
446 Views
Last post June 02, 2018, 10:25:40 PM
by shahzaibjaan
4 Replies
900 Views
Last post August 07, 2018, 05:47:41 PM
by shahzaibjaan
0 Replies
722 Views
Last post August 15, 2018, 06:40:54 PM
by Rάήνίјάч1234
1 Replies
215 Views
Last post October 08, 2018, 12:43:07 AM
by bunny1234




Back to top