NARUTO TO BORUTO SHINOBI STRIKER Update v1.05.00-CODEX | HD La Mécanique de l'ombre | Julie und die roten Schuhe (DVDRip.x264)

+ ShareSpark.net »  :::: Bollywood Zone » Bollywood Movies (Original Rips) » High Resolution Movies
|- Dhadak 2018 Hindi 1080p AMZN WEB-DL H264 DDP5.1 - NbT


Mastercard 10% Off

Dhadak 2018 Hindi 1080p AMZN WEB-DL H264 DDP5.1 - NbT

0 Members and 1 Guest are viewing this topic.

October 04, 2018, 02:15:13 AM
  • Global Moderator
  • Legend Member
  • *****
  • Topic Author
  • Thank You: 10106
  • Reputation: 2088
  • Activity:
    100%
  • Country: in
  • Posts: 5242
  • Topics: 4324
  • Join Date: Jan 2014
  • ıllıllı ѕмoĸιng ιѕ good ғor нealтн ıllıllı :)


Dhadak 2018 Hindi 1080p AMZN WEB-DL H264 DDP5.1 - NbT

Quote
General
Format                      : Matroska
Format version              : Version 4
File size                   : 6.30 GiB
Duration                    : 2 h 17 min
Overall bit rate mode       : Variable
Overall bit rate            : 6 556 kb/s
Encoded date                : UTC 2018-10-03 16:17:13
Writing application         : mkvmerge v27.0.0 ('Metropolis') 64-bit
Writing library             : libebml v1.3.6 + libmatroska v1.4.9
Cover                       : Yes
Attachments                 : cover.jpg

Video
ID                          : 1
Format                      : AVC
Format/Info                 : Advanced Video Codec
Format profile              : [email protected]
Format settings             : CABAC / 4 Ref Frames
Format settings, CABAC      : Yes
Format settings, ReFrames   : 4 frames
Codec ID                    : V_MPEG4/ISO/AVC
Duration                    : 2 h 17 min
Bit rate mode               : Variable
Bit rate                    : 5 914 kb/s
Maximum bit rate            : 15.0 Mb/s
Width                       : 1 920 pixels
Height                      : 816 pixels
Display aspect ratio        : 2.35:1
Frame rate mode             : Constant
Frame rate                  : 24.000 FPS
Color space                 : YUV
Chroma subsampling          : 4:2:0
Bit depth                   : 8 bits
Scan type                   : Progressive
Bits/(Pixel*Frame)          : 0.157
Stream size                 : 5.68 GiB (90%)
Default                     : Yes
Forced                      : No
Color range                 : Limited
Color primaries             : BT.709
Transfer characteristics    : BT.709
Matrix coefficients         : BT.709

Audio
ID                          : 2
Format                      : E-AC-3
Format/Info                 : Enhanced AC-3
Commercial name             : Dolby Digital Plus
Codec ID                    : A_EAC3
Duration                    : 2 h 17 min
Bit rate mode               : Constant
Bit rate                    : 640 kb/s
Channel(s)                  : 6 channels
Channel layout              : L R C LFE Ls Rs
Sampling rate               : 48.0 kHz
Frame rate                  : 31.250 FPS (1536 SPF)
Compression mode            : Lossy
Stream size                 : 629 MiB (10%)
Title                       : Hindi
Language                    : Hindi
Service kind                : Complete Main
Default                     : No
Forced                      : No

Text
ID                          : 3
Format                      : UTF-8
Codec ID                    : S_TEXT/UTF8
Codec ID/Info               : UTF-8 Plain Text
Duration                    : 2 h 7 min
Bit rate                    : 40 b/s
Count of elements           : 1436
Stream size                 : 38.2 KiB (0%)
Title                       : English [SDH]
Language                    : English
Default                     : No
Forced                      : No

Menu
00:00:00.000                : en:Studio Logo
00:00:49.000                : en:Disclaimer
00:01:10.000                : en:Thank You Credits
00:01:34.000                : en:Title Sequence
00:01:39.000                : en:Scene 5
00:09:57.000                : en:Scene 6
00:19:37.000                : en:Scene 7
00:22:11.000                : en:Scene 8
00:36:58.000                : en:Scene 9
00:42:55.000                : en:Scene 10
00:51:26.000                : en:Scene 11
01:02:14.000                : en:Scene 12
01:11:12.000                : en:Scene 13
01:16:26.000                : en:Scene 14
01:27:33.000                : en:Scene 15
01:36:15.000                : en:Scene 16
01:48:31.000                : en:Scene 17
01:59:07.000                : en:Scene 18
02:11:42.000                : en:Acknowledgement
02:11:50.000                : en:End Credits








:download:

Quote








File Leeched & Uploaded From




Don't walk as you are king, walk as you don't care who the king is....!!
Never argue with an idiot. They drag you down to their level and then beat you with experience?

Share this topic on FacebookShare this topic on GoogleShare this topic on MySpaceShare this topic on TwitterShare this topic on Yahoo

« Last Edit: October 04, 2018, 03:07:11 AM by Rάήνίјάч1234 »



Don't walk as you are king, walk as you don't care who the king is....!!

Thanks given by:


October 04, 2018, 04:13:15 AM
Reply #1
  • Team SSX
  • Legend Member
  • ***
  • Thank You: 3123
  • Reputation: 810
  • Activity:
    100%
  • Country: np
  • Posts: 1904
  • Topics: 1094
  • Join Date: Jul 2016
  • Love Forever !!
 :hats:        :bravo:        :woohoo:       :10on10:      :claps:

October 04, 2018, 09:02:20 AM
Reply #2
  • Devoted Member
  • **
  • Thank You: 0
  • Reputation: 6
  • Activity:
    34.8%
  • Country: in
  • Posts: 172
  • Topics: 0
  • Join Date: Sep 2018
  • ShareSpark Member

October 04, 2018, 12:22:07 PM
Reply #3
  • Begginer
  • **
  • Thank You: 19
  • Reputation: 3
  • Activity:
    8.6%
  • Country: in
  • Posts: 77
  • Topics: 62
  • Join Date: Sep 2017
  • ShareSpark Member

October 07, 2018, 09:00:26 AM
Reply #4
  • Hero Member
  • ***
  • Thank You: 0
  • Reputation: 7
  • Activity:
    8%
  • Country: au
  • Posts: 386
  • Topics: 0
  • Join Date: Oct 2017
  • ShareSpark Member

Tags:
 

Related Topics

  Subject / Started by Replies Last post
0 Replies
1618 Views
Last post August 23, 2018, 03:02:45 AM
by Rάήνίјάч1234
2 Replies
690 Views
Last post September 23, 2018, 10:41:42 PM
by JohnMallory
0 Replies
578 Views
Last post October 01, 2018, 01:00:03 AM
by Rάήνίјάч1234
4 Replies
653 Views
Last post October 12, 2018, 10:07:51 PM
by Pankaj Kumar Gupta
0 Replies
522 Views
Last post October 19, 2018, 01:58:40 AM
by Rάήνίјάч1234




Back to top