[HorribleSubs] JoJo's Bizarre Adventure - Golden Wind - 01 [720p] | Making Of Morni Banke Badhaai Ho Ayushmann Khurrana Sanya Malhotra Guru Randhawa Neha Kakkar | Tantei Opera Milky Holmes Dai 2 Maku Sub Indo Batch Eps 1-12 Lengkap

+ ShareSpark.net »  :::: Bollywood Zone » Bollywood Movies (Original Rips) » High Resolution Movies
|- Shivaay 2016 Hindi 1080p AMZN WEB-DL H264 DDP5.1 - NbT


One Plus 6

Shivaay 2016 Hindi 1080p AMZN WEB-DL H264 DDP5.1 - NbT

0 Members and 1 Guest are viewing this topic.

October 04, 2018, 01:32:38 AM
  • Global Moderator
  • Legend Member
  • *****
  • Topic Author
  • Thank You: 10106
  • Reputation: 2088
  • Activity:
    100%
  • Country: in
  • Posts: 5242
  • Topics: 4324
  • Join Date: Jan 2014
  • ıllıllı ѕмoĸιng ιѕ good ғor нealтн ıllıllı :)
Shivaay 2016 Hindi 1080p AMZN WEB-DL H264 DDP5.1 - NbT



Quote
General
Unique ID                   : 140656997839135498561770262492889353365 (0x69D18D6A41BDFDE1670E20DC64DE0C95)
Complete name               : Shivaay 2016 Hindi 1080p AMZN WEB-DL H264 DDP5.1 - NbT.mkv
Format                      : Matroska
Format version              : Version 4
File size                   : 7.64 GiB
Duration                    : 2 h 33 min
Overall bit rate mode       : Variable
Overall bit rate            : 7 108 kb/s
Encoded date                : UTC 2018-10-02 11:40:38
Writing application         : mkvmerge v27.0.0 ('Metropolis') 64-bit
Writing library             : libebml v1.3.6 + libmatroska v1.4.9
Cover                       : Yes
Attachments                 : cover.jpg

Video
ID                          : 1
Format                      : AVC
Format/Info                 : Advanced Video Codec
Format profile              : [email protected]
Format settings             : CABAC / 4 Ref Frames
Format settings, CABAC      : Yes
Format settings, ReFrames   : 4 frames
Codec ID                    : V_MPEG4/ISO/AVC
Duration                    : 2 h 33 min
Bit rate mode               : Variable
Bit rate                    : 6 465 kb/s
Maximum bit rate            : 15.0 Mb/s
Width                       : 1 920 pixels
Height                      : 816 pixels
Display aspect ratio        : 2.35:1
Frame rate mode             : Constant
Frame rate                  : 25.000 FPS
Color space                 : YUV
Chroma subsampling          : 4:2:0
Bit depth                   : 8 bits
Scan type                   : Progressive
Bits/(Pixel*Frame)          : 0.165
Stream size                 : 6.95 GiB (91%)
Default                     : Yes
Forced                      : No
Color range                 : Limited
Color primaries             : BT.709
Transfer characteristics    : BT.709
Matrix coefficients         : BT.709

Audio
ID                          : 2
Format                      : E-AC-3
Format/Info                 : Enhanced AC-3
Commercial name             : Dolby Digital Plus
Codec ID                    : A_EAC3
Duration                    : 2 h 33 min
Bit rate mode               : Constant
Bit rate                    : 640 kb/s
Channel(s)                  : 6 channels
Channel layout              : L R C LFE Ls Rs
Sampling rate               : 48.0 kHz
Frame rate                  : 31.250 FPS (1536 SPF)
Compression mode            : Lossy
Stream size                 : 704 MiB (9%)
Title                       : Hindi
Language                    : Hindi
Service kind                : Complete Main
Default                     : No
Forced                      : No

Text #1
ID                          : 3
Format                      : UTF-8
Codec ID                    : S_TEXT/UTF8
Codec ID/Info               : UTF-8 Plain Text
Duration                    : 2 h 26 min
Bit rate                    : 31 b/s
Count of elements           : 1038
Stream size                 : 34.2 KiB (0%)
Title                       : English [Full]
Language                    : English
Default                     : Yes
Forced                      : No

Text #2
ID                          : 4
Format                      : UTF-8
Codec ID                    : S_TEXT/UTF8
Codec ID/Info               : UTF-8 Plain Text
Duration                    : 2 h 27 min
Bit rate                    : 25 b/s
Count of elements           : 957
Stream size                 : 27.4 KiB (0%)
Title                       : Castilian [Full]
Language                    : Spanish
Default                     : No
Forced                      : No

Text #3
ID                          : 5
Format                      : UTF-8
Codec ID                    : S_TEXT/UTF8
Codec ID/Info               : UTF-8 Plain Text
Duration                    : 2 h 27 min
Bit rate                    : 27 b/s
Count of elements           : 961
Stream size                 : 29.8 KiB (0%)
Title                       : Spanish [Full]
Language                    : Spanish
Default                     : No
Forced                      : No

Text #4
ID                          : 6
Format                      : UTF-8
Codec ID                    : S_TEXT/UTF8
Codec ID/Info               : UTF-8 Plain Text
Duration                    : 2 h 27 min
Bit rate                    : 28 b/s
Count of elements           : 957
Stream size                 : 30.3 KiB (0%)
Title                       : French [Full]
Language                    : French
Default                     : No
Forced                      : No

Text #5
ID                          : 7
Format                      : UTF-8
Codec ID                    : S_TEXT/UTF8
Codec ID/Info               : UTF-8 Plain Text
Duration                    : 2 h 27 min
Bit rate                    : 25 b/s
Count of elements           : 941
Stream size                 : 27.4 KiB (0%)
Title                       : Italian [Full]
Language                    : Italian
Default                     : No
Forced                      : No

Text #6
ID                          : 8
Format                      : UTF-8
Codec ID                    : S_TEXT/UTF8
Codec ID/Info               : UTF-8 Plain Text
Duration                    : 2 h 27 min
Bit rate                    : 27 b/s
Count of elements           : 958
Stream size                 : 29.3 KiB (0%)
Title                       : Brazilian Portuguese [Full]
Language                    : Portuguese
Default                     : No
Forced                      : No

Menu
00:00:00.000                : en:Thank You Credits
00:00:29.000                : en:Studio Logo
00:01:34.000                : en:Title Credits
00:01:50.000                : en:Shivaay helps the army
00:10:53.000                : en:Olay talks to Shivaay, Shivaay shows his tattoos
00:15:06.000                : en:Plans of future and unfortunate accident
00:20:51.000                : en:Shivaay promises Olga that he will keep her safe
00:29:26.000                : en:The short affair and the consequences
00:35:32.000                : en:A different life Shivaay built for himself
00:41:57.000                : en:Gaura finds out the truth
00:45:09.000                : en:Gaura has just one request
00:50:24.000                : en:Shivaay intervenes in a bad situation
00:54:29.000                : en:Gaura and Shivaay start their search
01:00:40.000                : en:Most precious thing is snatched from Shivaay
01:09:20.000                : en:Shivaay is captured
01:13:05.000                : en:Shivaay gets to know the truth behind the disappearance
01:18:38.000                : en:Shivaay calls Anushka
01:24:18.000                : en:Shivaay destroys the unholy lair
01:31:34.000                : en:Anushka's dad tells her about doing the correct thing
01:34:46.000                : en:Embassy tries to help Shivaay
01:38:04.000                : en:Olga meets Shivaay
01:46:10.000                : en:Shivaay won't run
01:49:48.000                : en:Someone else is involved
01:56:57.000                : en:Shivaay finds out the identity of Changez
02:12:11.000                : en:Destruction of the evil
02:21:48.000                : en:Gaura and her happiness in her new home
02:28:25.000                : en:Gaura return's to her dad
02:30:27.000                : en:End Credits






:download:

Quote

File Leeched & Uploaded From




Don't walk as you are king, walk as you don't care who the king is....!!
Never argue with an idiot. They drag you down to their level and then beat you with experience?

Share this topic on FacebookShare this topic on GoogleShare this topic on MySpaceShare this topic on TwitterShare this topic on Yahoo




Don't walk as you are king, walk as you don't care who the king is....!!

Thanks given by:


October 04, 2018, 04:14:35 AM
Reply #1
  • Team SSX
  • Legend Member
  • ***
  • Thank You: 3123
  • Reputation: 810
  • Activity:
    100%
  • Country: np
  • Posts: 1904
  • Topics: 1094
  • Join Date: Jul 2016
  • Love Forever !!
 :10on10:         :bravo:       :dance:         :claps:

October 05, 2018, 11:28:42 AM
Reply #2
  • Devoted Member
  • **
  • Thank You: 0
  • Reputation: 6
  • Activity:
    34.8%
  • Country: in
  • Posts: 172
  • Topics: 0
  • Join Date: Sep 2018
  • ShareSpark Member

Tags:
 

Related Topics

  Subject / Started by Replies Last post
5 Replies
826 Views
Last post October 06, 2018, 09:29:43 AM
by Pankaj Kumar Gupta
2 Replies
690 Views
Last post September 23, 2018, 10:41:42 PM
by JohnMallory
6 Replies
944 Views
Last post October 04, 2018, 08:57:39 PM
by javedn
0 Replies
578 Views
Last post October 01, 2018, 01:00:03 AM
by Rάήνίјάч1234
4 Replies
804 Views
Last post October 07, 2018, 09:00:26 AM
by Changezi




Back to top