€rste Liga | マルチメディア | Fortnite Battle Royale

+ ShareSpark.net »  :::: Bollywood Zone » Bollywood Movies (Original Rips) » High Resolution Movies
|- Shivaay (2016) Hindi 1080p WEB-Rip x264 DDP5.1 - Esub ~ Ranvijay


10% SBI and 10% Discount

Shivaay (2016) Hindi 1080p WEB-Rip x264 DDP5.1 - Esub ~ Ranvijay

0 Members and 1 Guest are viewing this topic.

October 04, 2018, 01:26:41 AM
  • Global Moderator
  • Legend Member
  • *****
  • Topic Author
  • Thank You: 10106
  • Reputation: 2088
  • Activity:
    100%
  • Country: in
  • Posts: 5242
  • Topics: 4324
  • Join Date: Jan 2014
  • ıllıllı ѕмoĸιng ιѕ good ғor нealтн ıllıllı :)


Shivaay (2016) Hindi 1080p WEB-Rip x264 DDP5.1 - Esub ~ Ranvijay

Source :- NbT (Thanks)


Quote
General
Format                                   : Matroska
Format version                           : Version 4 / Version 2
File size                                : 4.99 GiB
Duration                                 : 2 h 33 min
Overall bit rate                         : 4 642 kb/s
Movie name                               : Shivaay (2016) Hindi 1080p WEB-Rip x264 DDP5.1 - Esub ~ Ranvijay

Video
ID                                       : 1
Format                                   : AVC
Format/Info                              : Advanced Video Codec
Duration                                 : 2 h 33 min
Bit rate                                 : 4 000 kb/s
Width                                    : 1 920 pixels
Height                                   : 808 pixels
Display aspect ratio                     : 2.40:1
Frame rate mode                          : Constant
Frame rate                               : 25.000 FPS
Color space                              : YUV
Chroma subsampling                       : 4:2:0
Bit depth                                : 8 bits
Scan type                                : Progressive
Bits/(Pixel*Frame)                       : 0.103
Stream size                              : 4.30 GiB (86%)
Title                                    : ~Ranvijay~

Audio
ID                                       : 2
Format                                   : E-AC-3
Format/Info                              : Enhanced Audio Coding 3
Codec ID                                 : A_EAC3
Duration                                 : 2 h 33 min
Bit rate mode                            : Constant
Bit rate                                 : 640 kb/s
Channel(s)                               : 6 channels
Channel positions                        : Front: L C R, Side: L R, LFE
Sampling rate                            : 48.0 kHz
Frame rate                               : 187.500 FPS (256 SPF)
Compression mode                         : Lossy
Delay relative to video                  : -80 ms
Stream size                              : 704 MiB (14%)
Title                                    : ~Ranvijay~
Language                                 : Hindi
Service kind                             : Complete Main
Default                                  : Yes
Forced                                   : Yes

Text
ID                                       : 3
Format                                   : UTF-8
Codec ID                                 : S_TEXT/UTF8
Codec ID/Info                            : UTF-8 Plain Text
Duration                                 : 2 h 26 min
Bit rate                                 : 31 b/s
Count of elements                        : 1038
Stream size                              : 34.2 KiB (0%)
Title                                    : ~Ranvijay~
Language                                 : English
Default                                  : Yes
Forced                                   : Yes

Menu
00:00:00.000                             : en:Thank You Credits
00:00:29.000                             : en:Studio Logo
00:01:34.000                             : en:Title Credits
00:01:50.000                             : en:Shivaay helps the army
00:10:53.000                             : en:Olay talks to Shivaay, Shivaay shows his tattoos
00:15:06.000                             : en:Plans of future and unfortunate accident
00:20:51.000                             : en:Shivaay promises Olga that he will keep her safe
00:29:26.000                             : en:The short affair and the consequences
00:35:32.000                             : en:A different life Shivaay built for himself
00:41:57.000                             : en:Gaura finds out the truth
00:45:09.000                             : en:Gaura has just one request
00:50:24.000                             : en:Shivaay intervenes in a bad situation
00:54:29.000                             : en:Gaura and Shivaay start their search
01:00:40.000                             : en:Most precious thing is snatched from Shivaay
01:09:20.000                             : en:Shivaay is captured
01:13:05.000                             : en:Shivaay gets to know the truth behind the disappearance
01:18:38.000                             : en:Shivaay calls Anushka
01:24:18.000                             : en:Shivaay destroys the unholy lair
01:31:34.000                             : en:Anushka's dad tells her about doing the correct thing
01:34:46.000                             : en:Embassy tries to help Shivaay
01:38:04.000                             : en:Olga meets Shivaay
01:46:10.000                             : en:Shivaay won't run
01:49:48.000                             : en:Someone else is involved
01:56:57.000                             : en:Shivaay finds out the identity of Changez
02:12:11.000                             : en:Destruction of the evil
02:21:48.000                             : en:Gaura and her happiness in her new home
02:28:25.000                             : en:Gaura return's to her dad
02:30:27.000                             : en:End Credits














:download:

Quote


File Leeched & Uploaded From




Don't walk as you are king, walk as you don't care who the king is....!!
Never argue with an idiot. They drag you down to their level and then beat you with experience?

Share this topic on FacebookShare this topic on GoogleShare this topic on MySpaceShare this topic on TwitterShare this topic on Yahoo




Don't walk as you are king, walk as you don't care who the king is....!!

Thanks given by:


October 04, 2018, 04:16:15 AM
Reply #1
  • Team SSX
  • Legend Member
  • ***
  • Thank You: 3122
  • Reputation: 810
  • Activity:
    100%
  • Country: np
  • Posts: 1904
  • Topics: 1094
  • Join Date: Jul 2016
  • Love Forever !!
 :hats:        :claps:        :claps:            :claps:

Tags:
 

Related Topics





Back to top