Adblock Plus for Chrome | Đài Loan | Healthcare

+ ShareSpark.net »  :::: Bollywood Zone » Bollywood Movies (Original Rips) » High Resolution Movies
|- Kasoor 2001 Hindi 1080p AMZN WEB-DL H264 DDP5.1 - NbT


100% Recharge Offer
  • Kasoor 2001 Hindi 1080p AMZN WEB-DL H264 DDP5.1 - NbT 5 2
Currently:  

Kasoor 2001 Hindi 1080p AMZN WEB-DL H264 DDP5.1 - NbT

0 Members and 1 Guest are viewing this topic.

October 01, 2018, 12:02:11 AM
  • Global Moderator
  • Legend Member
  • *****
  • Topic Author
  • Thank You: 10106
  • Reputation: 2088
  • Activity:
    100%
  • Country: in
  • Posts: 5242
  • Topics: 4324
  • Join Date: Jan 2014
  • ıllıllı ѕмoĸιng ιѕ good ғor нealтн ıllıllı :)
Kasoor 2001 Hindi 1080p AMZN WEB-DL H264 DDP5.1 - NbT



Quote
General
Unique ID                   : 102314084716190459326278560169958921141 (0x4CF8F9D7C6F4CA73EAECBDC45B3153B5)
Complete name               : Kasoor 2001 Hindi 1080p AMZN WEB-DL H264 DDP5.1 - NbT.mkv
Format                      : Matroska
Format version              : Version 4
File size                   : 9.22 GiB
Duration                    : 2 h 29 min
Overall bit rate mode       : Variable
Overall bit rate            : 8 809 kb/s
Encoded date                : UTC 2018-09-30 16:49:32
Writing application         : mkvmerge v27.0.0 ('Metropolis') 64-bit
Writing library             : libebml v1.3.6 + libmatroska v1.4.9
Cover                       : Yes
Attachments                 : cover.jpg

Video
ID                          : 1
Format                      : AVC
Format/Info                 : Advanced Video Codec
Format profile              : [email protected]
Format settings             : CABAC / 4 Ref Frames
Format settings, CABAC      : Yes
Format settings, ReFrames   : 4 frames
Codec ID                    : V_MPEG4/ISO/AVC
Duration                    : 2 h 29 min
Bit rate mode               : Variable
Bit rate                    : 8 167 kb/s
Maximum bit rate            : 15.0 Mb/s
Width                       : 1 920 pixels
Height                      : 816 pixels
Display aspect ratio        : 2.35:1
Frame rate mode             : Constant
Frame rate                  : 24.000 FPS
Color space                 : YUV
Chroma subsampling          : 4:2:0
Bit depth                   : 8 bits
Scan type                   : Progressive
Bits/(Pixel*Frame)          : 0.217
Stream size                 : 8.55 GiB (93%)
Default                     : Yes
Forced                      : No
Color range                 : Limited
Color primaries             : BT.709
Transfer characteristics    : BT.709
Matrix coefficients         : BT.709

Audio
ID                          : 2
Format                      : E-AC-3
Format/Info                 : Enhanced AC-3
Commercial name             : Dolby Digital Plus
Codec ID                    : A_EAC3
Duration                    : 2 h 29 min
Bit rate mode               : Constant
Bit rate                    : 640 kb/s
Channel(s)                  : 6 channels
Channel layout              : L R C LFE Ls Rs
Sampling rate               : 48.0 kHz
Frame rate                  : 31.250 FPS (1536 SPF)
Compression mode            : Lossy
Stream size                 : 686 MiB (7%)
Title                       : Hindi
Language                    : Hindi
Service kind                : Complete Main
Default                     : No
Forced                      : No







:download:

Quote


File Leeched & Uploaded From




Don't walk as you are king, walk as you don't care who the king is....!!
Never argue with an idiot. They drag you down to their level and then beat you with experience?

Share this topic on FacebookShare this topic on GoogleShare this topic on MySpaceShare this topic on TwitterShare this topic on Yahoo




Don't walk as you are king, walk as you don't care who the king is....!!

October 01, 2018, 03:17:45 AM
Reply #1
  • Newbie
  • **
  • Thank You: 0
  • Reputation: 0
  • Activity:
    0.6%
  • Country: in
  • Posts: 3
  • Topics: 0
  • Join Date: Aug 2018
  • ShareSpark Member
Ranvijay sir....Please also upload Hum Saath Saath Hain 1080p Full HD,,Is it available on Netflix ???...Thanks so much for this Quality upload of yours Awaarapan,Jannat,Kasoor,Footpath,Tumsa nahin dekha...All are Fantastic movies. :thank: :rep: :bravo:

October 01, 2018, 06:00:17 AM
Reply #2
  • Team SSX
  • Legend Member
  • ***
  • Thank You: 3122
  • Reputation: 810
  • Activity:
    100%
  • Country: np
  • Posts: 1904
  • Topics: 1094
  • Join Date: Jul 2016
  • Love Forever !!
 :hats:          :thank:          :rep:            :10on10:         :claps:

October 01, 2018, 11:52:24 AM
Reply #3
  • Semi Newbie
  • **
  • Thank You: 0
  • Reputation: 2
  • Activity:
    4.6%
  • Country: in
  • Posts: 42
  • Topics: 0
  • Join Date: Oct 2017
  • ShareSpark Member

October 01, 2018, 02:01:08 PM
Reply #4
  • Semi Newbie
  • **
  • Thank You: 0
  • Reputation: 1
  • Activity:
    3%
  • Country: in
  • Posts: 16
  • Topics: 0
  • Join Date: Jun 2018
  • ShareSpark Member
this movie ko maximum 5gb size convert kar do

October 02, 2018, 11:11:36 PM
Reply #5
  • Semi Newbie
  • **
  • Thank You: 1
  • Reputation: 0
  • Activity:
    3.8%
  • Country: in
  • Posts: 26
  • Topics: 1
  • Join Date: Sep 2015
  • ShareSpark Member
 :agreed: :thank: :10on10: yaar m your now fan
many many thanx for this bro and please upload all videos of this these movie pure Bluray rip and please also upload videos of footpath 2003

October 04, 2018, 08:57:39 PM
Reply #6
  • Semi Newbie
  • **
  • Thank You: 1
  • Reputation: 0
  • Activity:
    3.8%
  • Country: in
  • Posts: 26
  • Topics: 1
  • Join Date: Sep 2015
  • ShareSpark Member
Bro Please Upload This Movies Videos
Thanx In Advance

Tags:
 

Related Topics

  Subject / Started by Replies Last post
5 Replies
825 Views
Last post October 06, 2018, 09:29:43 AM
by Pankaj Kumar Gupta
2 Replies
690 Views
Last post September 23, 2018, 10:41:42 PM
by JohnMallory
0 Replies
578 Views
Last post October 01, 2018, 01:00:03 AM
by Rάήνίјάч1234
2 Replies
445 Views
Last post October 05, 2018, 11:28:42 AM
by Pankaj Kumar Gupta
4 Replies
802 Views
Last post October 07, 2018, 09:00:26 AM
by Changezi




Back to top