[ ] Apostle 2018 FRENCH NF WEBRip XviD-EXTREME | APK إلى APPX | 24 Hours In A and E S15E04 720p HEVC x265-MeGusta 26 minutes

+ ShareSpark.net »  :::: Bollywood Zone » Bollywood Movies (Original Rips) » High Resolution Movies
|- Jannat 2008 Hindi 1080p AMZN WEB-DL H264 DDP 5.1 - NbT


Mastercard 10% Off

Jannat 2008 Hindi 1080p AMZN WEB-DL H264 DDP 5.1 - NbT

0 Members and 1 Guest are viewing this topic.

September 29, 2018, 03:38:39 AM
  • Global Moderator
  • Legend Member
  • *****
  • Topic Author
  • Thank You: 10106
  • Reputation: 2088
  • Activity:
    100%
  • Country: in
  • Posts: 5242
  • Topics: 4324
  • Join Date: Jan 2014
  • ıllıllı ѕмoĸιng ιѕ good ғor нealтн ıllıllı :)
Jannat 2008 Hindi 1080p AMZN WEB-DL H264 DDP 5.1 - NbT



Quote
iMDb                        :


General
Complete name               : Jannat 2008 Hindi 1080p AMZN WEB-DL H264 DDP 5.1 - NbT
Format                      : Matroska
Format version              : Version 4 / Version 2
File size                   : 11.0 GiB
Duration                    : 2 h 20 min
Overall bit rate mode       : Variable
Overall bit rate            : 11.2 Mb/s


Video
ID                          : 1
Format                      : AVC
Format/Info                 : Advanced Video Codec
Format profile              : [email protected]
Format settings             : CABAC / 4 Ref Frames
Format settings, CABAC      : Yes
Format settings, ReFrames   : 4 frames
Codec ID                    : V_MPEG4/ISO/AVC
Duration                    : 2 h 20 min
Bit rate mode               : Variable
Bit rate                    : 10.6 Mb/s
Maximum bit rate            : 15.0 Mb/s
Width                       : 1 920 pixels
Height                      : 816 pixels
Display aspect ratio        : 2.35:1
Frame rate mode             : Constant
Frame rate                  : 24.000 FPS
Color space                 : YUV
Chroma subsampling          : 4:2:0
Bit depth                   : 8 bits
Scan type                   : Progressive
Bits/(Pixel*Frame)          : 0.281
Stream size                 : 10.4 GiB (94%)
Language                    : Hindi
Default                     : Yes
Forced                      : No
Color range                 : Limited
Color primaries             : BT.709
Transfer characteristics    : BT.709
Matrix coefficients         : BT.709

Audio
ID                          : 2
Format                      : E-AC-3
Format/Info                 : Enhanced AC-3
Commercial name             : Dolby Digital Plus
Codec ID                    : A_EAC3
Duration                    : 2 h 20 min
Bit rate mode               : Constant
Bit rate                    : 640 kb/s
Channel(s)                  : 6 channels
Channel positions           : Front: L C R, Side: L R, LFE
Sampling rate               : 48.0 kHz
Frame rate                  : 31.250 FPS (1536 SPF)
Compression mode            : Lossy
Stream size                 : 641 MiB (6%)
Title                       : Hindi
Language                    : Hindi
Service kind                : Complete Main
Default                     : No
Forced                      : No







:download:

Quote

File Leeched & Uploaded From




Don't walk as you are king, walk as you don't care who the king is....!!
Never argue with an idiot. They drag you down to their level and then beat you with experience?

Share this topic on FacebookShare this topic on GoogleShare this topic on MySpaceShare this topic on TwitterShare this topic on Yahoo




Don't walk as you are king, walk as you don't care who the king is....!!

September 29, 2018, 03:53:51 AM
Reply #1
  • Team SSX
  • Legend Member
  • ***
  • Thank You: 3122
  • Reputation: 810
  • Activity:
    100%
  • Country: np
  • Posts: 1904
  • Topics: 1094
  • Join Date: Jul 2016
  • Love Forever !!
 :10on10:           :rep:              :thank:           :thumbs:

September 29, 2018, 07:50:42 AM
Reply #2
  • Semi Newbie
  • **
  • Thank You: 1
  • Reputation: 0
  • Activity:
    3.8%
  • Country: in
  • Posts: 26
  • Topics: 1
  • Join Date: Sep 2015
  • ShareSpark Member
 :thank: Please Upload Kasoor (2002) Hindi 1080p AMZN WEB-DL H264 DDP 5.1 - NbT, and also upload Kasoor (2002) videos

September 29, 2018, 11:17:09 AM
Reply #3
  • Semi Newbie
  • **
  • Thank You: 0
  • Reputation: 2
  • Activity:
    4.6%
  • Country: in
  • Posts: 42
  • Topics: 0
  • Join Date: Oct 2017
  • ShareSpark Member
waah bhai...waah......only...Ranvijay...can ...do...impossible...work.....

Need....crook...2010...AMZN

October 09, 2018, 11:38:24 AM
Reply #4
  • Devoted Member
  • **
  • Thank You: 0
  • Reputation: 6
  • Activity:
    34.8%
  • Country: in
  • Posts: 172
  • Topics: 0
  • Join Date: Sep 2018
  • ShareSpark Member

Tags:
 

Related Topics

  Subject / Started by Replies Last post
3 Replies
642 Views
Last post October 09, 2018, 04:01:56 PM
by Pankaj Kumar Gupta
11 Replies
1213 Views
Last post October 03, 2018, 08:32:04 AM
by vst2018
5 Replies
826 Views
Last post October 06, 2018, 09:29:43 AM
by Pankaj Kumar Gupta
2 Replies
690 Views
Last post September 23, 2018, 10:41:42 PM
by JohnMallory
0 Replies
210 Views
Last post October 09, 2018, 01:05:09 PM
by Rάήνίјάч1234




Back to top